Login
Username:
Password:
[Signup]
[Recover Account]


Browse Torrents

Poll


You must be logged in to view polls



Latest Torrents
TMZ.on.TV.2019.01....
- [Size: 162.66 MB]

Project.Runway.All...
- [Size: 567.70 MB]

The Hunger Games M...
- [Size: 878.08 MB]

The.Daily.Show.201...
- [Size: 341.49 MB]

Black.Ink.Crew.Chi...
- [Size: 346.03 MB]


Torrent Details For "Baazaar (2018) Hindi HDRip - 720p -x264 -DD5.1 (224Kbps) -1.4GB -ESub [MOVCR]"

Baazaar (2018) Hindi HDRip - 720p -x264 -DD5.1 (224Kbps) -1.4GB -ESub [MOVCR]

Download this torrent | Magnet Download
Health:
Seeds: 12
Leechers: 973
Completed:
Last Checked: 12-01-2019 17:02:54
External Torrent
Update Stats



Images Host

Poster


Watch-Free-HD     Download

Details
Name:Baazaar (2018) Hindi HDRip - 720p -x264 -DD5.1 (224Kbps) -1.4GB -ESub [MOVCR]
Description:
 


Video
ID                          : 1
Format                      : AVC
Format/Info                 : Advanced Video Codec
Format profile              : [email protected]
Format settings             : CABAC / 4 Ref Frames
Format settings, CABAC      : Yes
Format settings, ReFrames   : 4 frames
Codec ID                    : V_MPEG4/ISO/AVC
Duration                    : 2 h 16 min
Bit rate                    : 1 209 kb/s
Width                       : 1 280 pixels
Height                      : 544 pixels
Display aspect ratio        : 2.35:1
Frame rate mode             : Constant
Frame rate                  : 24.000 FPS
Color space                 : YUV
Audio
ID                          : 2
Format                      : AC-3
Format/Info                 : Audio Coding 3
Codec ID                    : A_AC3
Duration                    : 2 h 16 min
Bit rate mode               : Constant
Bit rate                    : 224 kb/s
Channel(s)                  : 6 channels
Channel positions           : Front: L C R, Side: L R, LFE
Sampling rate               : 48.0 kHz
Frame rate                  : 31.250 FPS (1536 SPF)
Bit depth                   : 16 bits
Compression mode            : Lossy
Stream size                 : 219 MiB (16%)
Title                       :
Language                    : Hindi
Service kind                : Complete Main
Default                     : Yes
Forced                      : Yes

Text
ID                          : 3
Format                      : UTF-8
Codec ID                    : S_TEXT/UTF8
Codec ID/Info               : UTF-8 Plain Text
Duration                    : 2 h 11 min
Bit rate                    : 66 b/s
Count of elements           : 1563
Stream size                 : 64.6 KiB (0%)
Title                       :
Language                    : English
Default                     : Yes
Forced                      : Yes
         

Category:Movies > Bollywood
Lang:Hindi
Total Size:1.38 GB
Info Hash:1dbc6b2156d251a5dd6a7017d6e8e4cb813b1420
Added By:Tamilgun
Date Added:12-01-2019 16:43:38
Downloads:204

Ratings:Not Yet Rated (Log in to rate it)


Tracker:
udp://tracker.coppersurfer.tk:6969/announce


File List: 


Comments

No comments still posted

Top
Copyright 2018 DownloadHD -|- Page Generated In 1.969484 secs.
-|- RSS Feed -|- Feed Info