Login
Username:
Password:
[Signup]
[Recover Account]


Browse Torrents

Poll


You must be logged in to view polls



Latest Torrents
TMZ.on.TV.2019.01....
- [Size: 162.66 MB]

Project.Runway.All...
- [Size: 567.70 MB]

The Hunger Games M...
- [Size: 878.08 MB]

The.Daily.Show.201...
- [Size: 341.49 MB]

Black.Ink.Crew.Chi...
- [Size: 346.03 MB]


Torrent Details For " Pihu 2018 x264 720p HD Esub Hindi GOPISAHI"

Pihu 2018 x264 720p HD Esub Hindi GOPISAHI

Download this torrent | Magnet Download
Health:
Seeds: 116
Leechers: 151
Completed: 139 
Last Checked: 12-01-2019 21:33:25
External Torrent
Update Stats



Images Host

Poster
No poster


Watch-Free-HD     Download

Details
Name: Pihu 2018 x264 720p HD Esub Hindi GOPISAHI
Description:
 http://www.gopisahi.pw/

Format                         : Matroska
Format version                 : Version 4 / Version 2
File size                      : 514 MiB
Duration                       : 1 h 30 min
Overall bit rate               : 796 kb/s
Movie name                     : Pihu 2018 GOPISAHI

Video
Format                         : AVC
Format/Info                    : Advanced Video Codec
Codec ID                       : V_MPEG4/ISO/AVC
Duration                       : 1 h 30 min
Bit rate                       : 699 kb/s
Width                          : 1 248 pixels
Height                         : 528 pixels
Display aspect ratio           : 2.35:1
Frame rate mode                : Constant
Frame rate                     : 24.000 FPS
Color space                    : YUV
Chroma subsampling             : 4:2:0
Bit depth                      : 8 bits
Scan type                      : Progressive
Bits/(Pixel*Frame)             : 0.044
Stream size                    : 451 MiB (88%)
Title                          : GOPISAHI
Writing library                : x264 core 155 r2901 7d0ff22

Audio
Format                         : AAC
Duration                       : 1 h 30 min
Bit rate                       : 96.0 kb/s
Channel(s)                     : 2 channels
Channel positions              : Front: L R
Sampling rate                  : 48.0 kHz
Frame rate                     : 46.875 FPS (1024 SPF)
Compression mode               : Lossy
Delay relative to video        : 9 ms
Stream size                    : 61.6 MiB (12%)
Title                          : GOPISAHI
Language                       : Hindi

Text
Language                       : English


Category:Movies > Bollywood
Lang:Hindi
Total Size:514.32 MB
Info Hash:2a745f6e783293afc9d3109bcf5c626ffbb6d0f9
Added By:gopisahi
Date Added:12-01-2019 13:28:44
Downloads:246

Ratings:Not Yet Rated (Log in to rate it)


Tracker:
udp://tracker.coppersurfer.tk:6969/announce


File List: 


Comments

No comments still posted

Top
Copyright 2018 DownloadHD -|- Page Generated In 0.501515 secs.
-|- RSS Feed -|- Feed Info