Login
Username:
Password:
[Signup]
[Recover Account]


Browse Torrents

Poll


You must be logged in to view polls



Latest Torrents
10 Cloverfield Lan...
- [Size: 963.57 MB]

Father.Brown.2013....
- [Size: 309.70 MB]

Flat 211 2017 WebR...
- [Size: 966.82 MB]

The.Gifted.S02E12....
- [Size: 285.57 MB]

Piercing.2019.720p...
- [Size: 719.87 MB]


Torrent Details For "Dakuaan Da Munda 2018 x264 720p HD Esub Punjabi GOPISAHI"

Dakuaan Da Munda 2018 x264 720p HD Esub Punjabi GOPISAHI

Download this torrent | Magnet Download
Health:
Seeds: 6
Leechers: 50
Completed:
Last Checked: 11-01-2019 14:52:09
External Torrent
Update Stats



Images Host

Poster
No poster


Watch-Free-HD     Download

Details
Name:Dakuaan Da Munda 2018 x264 720p HD Esub Punjabi GOPISAHI
Description:
 http://www.gopisahi.pw/

Format                         : Matroska
Format version                 : Version 4 / Version 2
File size                      : 803 MiB
Duration                       : 2 h 20 min
Overall bit rate               : 797 kb/s
Movie name                     : Dakuaan Da Munda 2018 GOPISAHI

Video
Format                         : AVC
Format/Info                    : Advanced Video Codec
Codec ID                       : V_MPEG4/ISO/AVC
Duration                       : 2 h 20 min
Bit rate                       : 699 kb/s
Width                          : 1 280 pixels
Height                         : 544 pixels
Display aspect ratio           : 2.35:1
Frame rate mode                : Constant
Frame rate                     : 24.000 FPS
Color space                    : YUV
Chroma subsampling             : 4:2:0
Bit depth                      : 8 bits
Scan type                      : Progressive
Bits/(Pixel*Frame)             : 0.042
Stream size                    : 704 MiB (88%)
Title                          : GOPISAHI
Writing library                : x264 core 155 r2901 7d0ff22

Audio
Format                         : AAC
Duration                       : 2 h 20 min
Bit rate                       : 96.0 kb/s
Channel(s)                     : 2 channels
Channel positions              : Front: L R
Sampling rate                  : 48.0 kHz
Frame rate                     : 46.875 FPS (1024 SPF)
Compression mode               : Lossy
Delay relative to video        : -21 ms
Stream size                    : 96.7 MiB (12%)
Title                          : GOPISAHI
Language                       : Panjabi

Text
Language                       : English


Category:Movies > Punjabi
Lang:Hindi
Total Size:803.21 MB
Info Hash:a9f94c31e4b63115f5f8ed7da20b5d5254ea0339
Added By:gopisahi
Date Added:11-01-2019 14:39:05
Downloads:225

Ratings:Not Yet Rated (Log in to rate it)


Tracker:
udp://tracker.coppersurfer.tk:6969/announce


File List: 


Comments

No comments still posted

Top
Copyright 2018 DownloadHD -|- Page Generated In 0.432322 secs.
-|- RSS Feed -|- Feed Info